NovaTV - CooolBox MPEG2 vs. Competitor MPEG4

Цифрова Интерактивна Телевизия

NovaTV - CooolBox MPEG2 vs. Competitor MPEG4

Мнениеот plameni » Вто Юни 14, 2016 12:00 am

Спрете да изтезавате очите ни!
Намерете начин да осигурите MPEG4-стрийм за NovaTV!

Въздържам се от по-задълбочен коментар, защото ще бъде твърде гневен и най-вероятно доста нецензурен...

ляво - CooolBox MPEG2 <-- | --> дясно - друг доставчик MPEG4

Изображение

Изображение

Изображение

Изображение

Изображение

Скрийншотове
Ooops! Did my sarcasm hurts your feelings?

За всяко явление може да се намери логично, просто и напълно погрешно обяснение...
Аватар
plameni
 
Мнения: 1139
Регистриран на: Вто Яну 27, 2009 11:04 pm

Re: NovaTV - CooolBox MPEG2 vs. Competitor MPEG4

Мнениеот Airfan » Вто Юни 14, 2016 10:37 am

Съгласен съм, че Нова е ХИПЕР МЕГА мазно зле от много време. Писах в друга тема, но нищо за сега.
Аватар
Airfan
 
Мнения: 603
Регистриран на: Вто Яну 27, 2009 12:39 am

Re: NovaTV - CooolBox MPEG2 vs. Competitor MPEG4

Мнениеот plameni » Вто Юни 14, 2016 11:48 am

Май всички си го знаехме, но не разполагах с "нагледни доказателства".
Ooops! Did my sarcasm hurts your feelings?

За всяко явление може да се намери логично, просто и напълно погрешно обяснение...
Аватар
plameni
 
Мнения: 1139
Регистриран на: Вто Яну 27, 2009 11:04 pm

Re: NovaTV - CooolBox MPEG2 vs. Competitor MPEG4

Мнениеот plamen_marinov_ » Вто Юни 14, 2016 9:11 pm

Типично българска-мишкарска работа.Вземаш пари за ХД,излъчваш мазньоч.Миналата година точно за същата работа им набих шута на Булсата.Ама така ще е докато всички си мълчат.Кулбокс отговорете защо картината е ужасна на ПЛАТЕНИЯ канал Диема спорт2 ХД.
plamen_marinov_
 
Мнения: 24
Регистриран на: Нед Дек 20, 2015 6:07 pm

Re: NovaTV - CooolBox MPEG2 vs. Competitor MPEG4

Мнениеот Auris 1.6 vvt-i » Сря Юни 15, 2016 12:37 am

plamen_marinov_ написа:Типично българска-мишкарска работа.Вземаш пари за ХД,излъчваш мазньоч.Миналата година точно за същата работа им набих шута на Булсата.Ама така ще е докато всички си мълчат.Кулбокс отговорете защо картината е ужасна на ПЛАТЕНИЯ канал Диема спорт2 ХД.

А случайно да забелязахте на скрийншотите на plameni, че каналът е Nova SD? За какво HD говорите или по "типично български-мишкарски" маниер, "яхвате вълната" на всенародното недоволство, за да си излеете мъката? Да, очевидно има разлика в качеството на стрийма на CooolBox, но това е обикновеният канал, а не платеният.
Изображение
Auris 1.6 vvt-i
 
Мнения: 35
Регистриран на: Чет Апр 03, 2014 9:34 pm

Re: NovaTV - CooolBox MPEG2 vs. Competitor MPEG4

Мнениеот Airfan » Сря Юни 15, 2016 8:51 am

Наистина е обикновено канал, но е необикновено по-зле от други. За мен е странно - преди години се твърдеше, че взимаме сигнал директно от студиото на Нова, но очевидно не е така вече.
Аватар
Airfan
 
Мнения: 603
Регистриран на: Вто Яну 27, 2009 12:39 am

Re: NovaTV - CooolBox MPEG2 vs. Competitor MPEG4

Мнениеот plamen_marinov_ » Сря Юни 15, 2016 10:01 am

Auris 1.6 vvt-i написа:
plamen_marinov_ написа:Типично българска-мишкарска работа.Вземаш пари за ХД,излъчваш мазньоч.Миналата година точно за същата работа им набих шута на Булсата.Ама така ще е докато всички си мълчат.Кулбокс отговорете защо картината е ужасна на ПЛАТЕНИЯ канал Диема спорт2 ХД.

А случайно да забелязахте на скрийншотите на plameni, че каналът е Nova SD? За какво HD говорите или по "типично български-мишкарски" маниер, "яхвате вълната" на всенародното недоволство, за да си излеете мъката? Да, очевидно има разлика в качеството на стрийма на CooolBox, но това е обикновеният канал, а не платеният.

А ти по типично мишкарски начин се мъчиш да адвокатстваш на някой,но не ти се получава.Хайде сега прочети какво съм написал,но БАВНО да можеш да го разбереш по-добре...."Кулбокс отговорете защо картината е ужасна на ПЛАТЕНИЯ канал Диема спорт2 ХД".Тук някъде да виждаш да говаря за СД-канал.
plamen_marinov_
 
Мнения: 24
Регистриран на: Нед Дек 20, 2015 6:07 pm

Re: NovaTV - CooolBox MPEG2 vs. Competitor MPEG4

Мнениеот plamen_marinov_ » Сря Юни 15, 2016 10:26 am

И още нещо....дори да говорим за "не платения" канал Нова,това трябва ли да означава,че трябва да се съгласяваме с това,че получаваме по-лошо качество от други оператори,при положение че Кулбокс има може би най-висока цена на услугите си.Точно поради тази причина очаквам ПО-ДОБРО КАЧЕСТВО.Писал съм и в друга тема,че като цяло съм доволен от тях,но това с влошаване на качеството на картината за мен не е ОК,защото аз държа именно на това,а не да има 200 канала за пълнеж,който не ги поглеждам.И с риск да се потретя...Точно заради мазньоча на ПЛАТЕНИЯ пакет ДИЕМА Екстра ХД миналата година на Булсата им казах сбогом(сега всеки месец ми звънят с нова оферта,като последната беше да си платя за 1 месец и ще ползвам 6 безплатно,познайте дали се съгласих) та по същата причина нямам никакви притеснения да кажа сбогом и на следващия оператор и на по-следващия и така докато си намеря точния.
plamen_marinov_
 
Мнения: 24
Регистриран на: Нед Дек 20, 2015 6:07 pm

Re: NovaTV - CooolBox MPEG2 vs. Competitor MPEG4

Мнениеот plameni » Сря Юни 15, 2016 12:14 pm

Коментирам точно определен канал и евентуалните възможности за подобряване на качеството му...
Може ли да продължите спора за другите пакети и канали в друга или в нова тема?

Пропуснал съм да добавя техническите параметри на двата стрийма:

CooolBox - MPEG2 - 5919 Kbps
Код: Избери целия код
General
ID                                       : 3 (0x3)
Complete name                            : 20160613-220520_NOVA_TV_Futbol_Belgiya-_Italiya.mpg
Format                                   : MPEG-TS
File size                                : 47.5 MiB
Duration                                 : 1mn 7s
Start time                               : UTC 2016-06-13 19:05:41
End time                                 : UTC 2016-06-13 19:06:26
Overall bit rate mode                    : Variable
Overall bit rate                         : 5 919 Kbps

Video
ID                                       : 1151 (0x47F)
Menu ID                                  : 151 (0x97)
Format                                   : MPEG Video
Format version                           : Version 2
Format profile                           : Main@Main
Format settings, BVOP                    : Yes
Format settings, Matrix                  : Custom
Format settings, GOP                     : M=2, N=12
Format settings, picture structure       : Frame
Codec ID                                 : 2
Duration                                 : 1mn 7s
Bit rate                                 : 5 467 Kbps
Width                                    : 720 pixels
Height                                   : 576 pixels
Display aspect ratio                     : 16:9
Frame rate                               : 25.000 fps
Standard                                 : PAL
Color space                              : YUV
Chroma subsampling                       : 4:2:0
Bit depth                                : 8 bits
Scan type                                : Interlaced
Scan order                               : Top Field First
Compression mode                         : Lossy
Bits/(Pixel*Frame)                       : 0.527
Time code of first frame                 : 19:14:35:11
Time code source                         : Group of pictures header
GOP, Open/Closed                         : Open
Stream size                              : 43.4 MiB (92%)

Audio
ID                                       : 2151 (0x867)
Menu ID                                  : 151 (0x97)
Format                                   : MPEG Audio
Format version                           : Version 1
Format profile                           : Layer 2
Codec ID                                 : 3
Duration                                 : 1mn 7s
Bit rate mode                            : Constant
Bit rate                                 : 192 Kbps
Channel(s)                               : 2 channels
Sampling rate                            : 48.0 KHz
Compression mode                         : Lossy
Delay relative to video                  : -364ms
Stream size                              : 1.54 MiB (3%)

друг доставчик MPEG4 - 5632 Kbps
Код: Избери целия код
General
ID                                       : 1 (0x1)
Complete name                            : record-2016-06-13-22h05m30s-nova-.ts
Format                                   : MPEG-TS
File size                                : 52.0 MiB
Duration                                 : 1mn 16s
Overall bit rate mode                    : Variable
Overall bit rate                         : 5 632 Kbps

Video
ID                                       : 256 (0x100)
Menu ID                                  : 1 (0x1)
Format                                   : AVC
Format/Info                              : Advanced Video Codec
Format profile                           : High@L3
Format settings, CABAC                   : Yes
Format settings, ReFrames                : 4 frames
Codec ID                                 : 27
Duration                                 : 1mn 16s
Bit rate                                 : 5 160 Kbps
Width                                    : 720 pixels
Height                                   : 576 pixels
Display aspect ratio                     : 4:3
Frame rate                               : 25.000 fps
Standard                                 : PAL
Color space                              : YUV
Chroma subsampling                       : 4:2:0
Bit depth                                : 8 bits
Scan type                                : MBAFF
Scan type, store method                  : Separated fields
Scan order                               : Top Field First
Bits/(Pixel*Frame)                       : 0.498
Stream size                              : 47.0 MiB (90%)
Color range                              : Limited
Color primaries                          : BT.601 PAL
Transfer characteristics                 : BT.470 System B, BT.470 System G
Matrix coefficients                      : BT.601

Audio
ID                                       : 257 (0x101)
Menu ID                                  : 1 (0x1)
Format                                   : MPEG Audio
Format version                           : Version 1
Format profile                           : Layer 2
Codec ID                                 : 3
Duration                                 : 1mn 17s
Bit rate mode                            : Constant
Bit rate                                 : 192 Kbps
Channel(s)                               : 2 channels
Sampling rate                            : 48.0 KHz
Compression mode                         : Lossy
Delay relative to video                  : -544ms
Stream size                              : 1.77 MiB (3%)
Ooops! Did my sarcasm hurts your feelings?

За всяко явление може да се намери логично, просто и напълно погрешно обяснение...
Аватар
plameni
 
Мнения: 1139
Регистриран на: Вто Яну 27, 2009 11:04 pm

Re: NovaTV - CooolBox MPEG2 vs. Competitor MPEG4

Мнениеот Joy » Сря Юни 15, 2016 12:51 pm

plamen_marinov_ написа:И още нещо....дори да говорим за "не платения" канал Нова,това трябва ли да означава,че трябва да се съгласяваме с това,че получаваме по-лошо качество от други оператори,при положение че Кулбокс има може би най-висока цена на услугите си.Точно поради тази причина очаквам ПО-ДОБРО КАЧЕСТВО.Писал съм и в друга тема,че като цяло съм доволен от тях,но това с влошаване на качеството на картината за мен не е ОК,защото аз държа именно на това,а не да има 200 канала за пълнеж,който не ги поглеждам.И с риск да се потретя...Точно заради мазньоча на ПЛАТЕНИЯ пакет ДИЕМА Екстра ХД миналата година на Булсата им казах сбогом(сега всеки месец ми звънят с нова оферта,като последната беше да си платя за 1 месец и ще ползвам 6 безплатно,познайте дали се съгласих) та по същата причина нямам никакви притеснения да кажа сбогом и на следващия оператор и на по-следващия и така докато си намеря точния.


Бихте ли пояснили като цяло ли наблюдавате влошено качество на картината при канал Diema Sport 2 HD или при определени предавания? От колко време се наблюдава този проблем? Ако може да ни предоставите по-конкретна информация.
t | 0700 45 045 m | +359 888 045 045
info@cooolbox.bg | www.cooolbox.bg
Аватар
Joy
Модератор
 
Мнения: 279
Регистриран на: Пон Юни 08, 2015 4:12 pm

Следваща

Назад към Coool TV

Кой е на линия

Потребители разглеждащи този форум: plameni и 1 госта