Eurosport 2 на HD ?

Цифрова Интерактивна Телевизия

Eurosport 2 на HD ?

Мнениеот crashburn162 » Нед Юли 16, 2017 3:59 pm

Здравейте,

Както се разбра Eurosport българия взеха правата за Wimbledon и го дават по Eurospot 2 само, може ли да го пусните на HD други 2 компании на приятели го дават канала на HD , като сте на IPTV нямате максимум канали на HD, така че не би трябвало да ви е проблем. Поне догодина да се гледа на HD .
crashburn162
 
Мнения: 5
Регистриран на: Пет Яну 30, 2015 12:25 pm

Re: Eurosport 2 на HD ?

Мнениеот Tony_ » Пон Юли 17, 2017 9:50 am

Здравейте, @crashburn162,

Водени са преговори с праводържателя, но без постигнато съгласие. Към момента не се планира пускане на Eurosport 2 HD. Ако има промяна по този въпрос, ще ви информираме. :)
t | 0700 45 045 m | +359 888 045 045
info@cooolbox.bg | www.cooolbox.bg
Аватар
Tony_
Модератор
 
Мнения: 154
Регистриран на: Вто Авг 02, 2016 2:50 pm

Re: Eurosport 2 на HD ?

Мнениеот sparta » Вто Юли 18, 2017 2:44 pm

Имате ли къде представа къде изчезна английското аудио на същия този Евроспорт 2? От вчера има някакъв проблем. Дано в скоро време го видим и на HD!
sparta
 
Мнения: 109
Регистриран на: Пон Дек 17, 2012 2:35 pm

Re: Eurosport 2 на HD ?

Мнениеот Tony_ » Сря Юли 19, 2017 12:57 pm

Здравейте, @sparta,

Както вече сме споделяли, всички аудио потоци, които излъчваме, по подразбиране се определят от доставчика на стрийма.
t | 0700 45 045 m | +359 888 045 045
info@cooolbox.bg | www.cooolbox.bg
Аватар
Tony_
Модератор
 
Мнения: 154
Регистриран на: Вто Авг 02, 2016 2:50 pm

Re: Eurosport 2 на HD ?

Мнениеот sparta » Сря Юли 19, 2017 6:33 pm

Ами сменете доставчика тогава. Явно този не става. Не е нормално един ден да има един да няма и да се чудиш какво става.
sparta
 
Мнения: 109
Регистриран на: Пон Дек 17, 2012 2:35 pm

Re: Eurosport 2 на HD ?

Мнениеот romel » Пет Авг 18, 2017 9:51 pm

Здравейте !

Аз продължавам да си питам " Кога" , най-после ще можем да гледаме Евроспорт 2 в HD формат ? Първият път когато съм ви питал (а и не съм само аз),беше на 21.08.2014 г ! Извинявайте, но за 3 години да не можете да се разберете с така нареченият "Праводържател"... мисля че става вече прекалено ! Клиентите Ви не са само почитатели на чалга канали !
romel
 
Мнения: 44
Регистриран на: Нед Юли 01, 2012 1:45 pm

Re: Eurosport 2 на HD ?

Мнениеот Tony_ » Вто Авг 22, 2017 1:44 pm

Здравейте, @romel,

Имаме предвид запитванията за Eurosport 2 в HD формат. Предпочитаме да обявяваме за новости, когато те се случат, за да не подвеждаме своите потребители. Това е, което можем да споделим към момента.
t | 0700 45 045 m | +359 888 045 045
info@cooolbox.bg | www.cooolbox.bg
Аватар
Tony_
Модератор
 
Мнения: 154
Регистриран на: Вто Авг 02, 2016 2:50 pm

Re: Eurosport 2 на HD ?

Мнениеот plameni » Съб Фев 03, 2018 2:41 pm

Похвално е, че най-накрая сте пуснали Евроспорт 2 в HD формат.
Сега остава да договорите и по-читав източник, че тия 5.6 Mb битрейт за видеото хич не стигат за супердинамичната картина на спортен канал.
За сателита бива, но за IPTV по оптика си е излагация...

Код: Избери целия код
General
ID                                       : 190 (0xBE)
Complete name                            : O:\20180203-132434_Eurosport_2_HD_Kresh_ays_-_Yuvaskila.mpg
Format                                   : MPEG-TS
File size                                : 335 MiB
Duration                                 : 7 min 21 s
Start time                               : UTC 2018-02-03 11:24:55
End time                                 : UTC 2018-02-03 11:31:55
Overall bit rate mode                    : Variable
Overall bit rate                         : 6 354 kb/s
FileExtension_Invalid                    : ts m2t m2s m4t m4s tmf ts tp trp ty

Video
ID                                       : 3511 (0xDB7)
Menu ID                                  : 5041 (0x13B1)
Format                                   : AVC
Format/Info                              : Advanced Video Codec
Format profile                           : High@L4
Format settings, CABAC                   : Yes
Format settings, ReFrames                : 4 frames
Codec ID                                 : 27
Duration                                 : 7 min 21 s
Bit rate                                 : 5 652 kb/s
Width                                    : 1 920 pixels
Height                                   : 1 080 pixels
Display aspect ratio                     : 16:9
Frame rate                               : 25.000 FPS
Standard                                 : Component
Color space                              : YUV
Chroma subsampling                       : 4:2:0
Bit depth                                : 8 bits
Scan type                                : Interlaced
Scan type, store method                  : Separated fields
Scan order                               : Top Field First
Bits/(Pixel*Frame)                       : 0.109
Stream size                              : 297 MiB (89%)
Color range                              : Limited
Color primaries                          : BT.709
Transfer characteristics                 : BT.709
Matrix coefficients                      : BT.709

Audio #1
ID                                       : 3531 (0xDCB)
Menu ID                                  : 5041 (0x13B1)
Format                                   : MPEG Audio
Format version                           : Version 1
Format profile                           : Layer 2
Codec ID                                 : 3
Duration                                 : 7 min 21 s
Bit rate mode                            : Constant
Bit rate                                 : 192 kb/s
Channel(s)                               : 2 channels
Sampling rate                            : 48.0 kHz
Compression mode                         : Lossy
Delay relative to video                  : -976 ms
Stream size                              : 10.1 MiB (3%)
Language                                 : English

Audio #2
ID                                       : 3541 (0xDD5)
Menu ID                                  : 5041 (0x13B1)
Format                                   : MPEG Audio
Format version                           : Version 1
Format profile                           : Layer 2
Codec ID                                 : 3
Duration                                 : 7 min 21 s
Bit rate mode                            : Constant
Bit rate                                 : 192 kb/s
Channel(s)                               : 2 channels
Sampling rate                            : 48.0 kHz
Compression mode                         : Lossy
Delay relative to video                  : -856 ms
Stream size                              : 10.1 MiB (3%)
Language                                 : Bulgarian

Menu
ID                                       : 3501 (0xDAD)
Menu ID                                  : 5041 (0x13B1)
Duration                                 : 7 min 21 s
List                                     : 3511 (0xDB7) (AVC) / 3541 (0xDD5) (MPEG Audio, Bulgarian) / 3531 (0xDCB) (MPEG Audio, English)
Language                                 :  / Bulgarian / English
Service name                             : Eurosport 2 HD
Service provider                         : CoresNet
Service type                             : advanced codec HD digital television

Ooops! Did my sarcasm hurts your feelings?

За всяко явление може да се намери логично, просто и напълно погрешно обяснение...
Аватар
plameni
 
Мнения: 1163
Регистриран на: Вто Яну 27, 2009 11:04 pm


Назад към Coool TV

Кой е на линия

Потребители разглеждащи този форум: Google [Bot] и 1 госта