Тема за проблеми и коментари

Цифрова Интерактивна Телевизия

Re: Тема за проблеми и коментари

Мнениеот Airfan » Вто Фев 11, 2020 3:25 pm

dkadrev написа:
Airfan написа:
dkadrev написа:Промяна няма!!! Отговор също!

070045045


Да, и на мен ми се струва, че няма пилот в самолета. А номера не е ли 080045045?!


Вече и аз незнам - сега гледам, че на началната страница е 0800 45 845, така че ще коригирам в моя пост. Някога беше това, което писах.

Пример
Аватар
Airfan
 
Мнения: 629
Регистриран на: Вто Яну 27, 2009 12:39 am

Re: Тема за проблеми и коментари

Мнениеот sparta » Нед Фев 16, 2020 9:37 pm

Защо вече спряхте излъчването на Евроспорт 1 в HD формат ? След надписът на Евроспорт горе вдясно трябва да пише HD, но от една седмица някъде, вече го няма. Защо се мина на SD версия ?
sparta
 
Мнения: 132
Регистриран на: Пон Дек 17, 2012 2:35 pm

Re: Тема за проблеми и коментари

Мнениеот plameni » Нед Фев 16, 2020 11:41 pm

Това SD ли е???
Изображение

Код: Избери целия код
Video
ID                                       : 4150 (0x1036)
Menu ID                                  : 106 (0x6A)
Format                                   : AVC
Format/Info                              : Advanced Video Codec
Format profile                           : High@L4
Format settings                          : CABAC / 4 Ref Frames
Format settings, CABAC                   : Yes
Format settings, Reference frames        : 4 frames
Codec ID                                 : 27
Duration                                 : 1 min 13 s
Bit rate mode                            : Constant
Bit rate                                 : 9 237 kb/s
Maximum bit rate                         : 9 527 kb/s
Width                                    : 1 920 pixels
Height                                   : 1 080 pixels
Display aspect ratio                     : 16:9
Frame rate                               : 25.000 FPS
Color space                              : YUV
Chroma subsampling                       : 4:2:0
Bit depth                                : 8 bits
Scan type                                : Interlaced
Scan type, store method                  : Separated fields
Scan order                               : Top Field First
Bits/(Pixel*Frame)                       : 0.178
Stream size                              : 77.7 MiB (90%)

Audio #1
ID                                       : 122 (0x7A)
Menu ID                                  : 106 (0x6A)
Format                                   : MPEG Audio
Format version                           : Version 1
Format profile                           : Layer 2
Codec ID                                 : 3
Duration                                 : 1 min 14 s
Bit rate mode                            : Constant
Bit rate                                 : 192 kb/s
Maximum bit rate                         : 197 kb/s
Channel(s)                               : 2 channels
Sampling rate                            : 48.0 kHz
Frame rate                               : 41.667 FPS (1152 SPF)
Compression mode                         : Lossy
Delay relative to video                  : -434 ms
Stream size                              : 1.71 MiB (2%)
Language                                 : English

Audio #2
ID                                       : 4166 (0x1046)
Menu ID                                  : 106 (0x6A)
Format                                   : MPEG Audio
Format version                           : Version 1
Format profile                           : Layer 2
Codec ID                                 : 3
Duration                                 : 1 min 14 s
Bit rate mode                            : Constant
Bit rate                                 : 192 kb/s
Maximum bit rate                         : 197 kb/s
Channel(s)                               : 2 channels
Sampling rate                            : 48.0 kHz
Frame rate                               : 41.667 FPS (1152 SPF)
Compression mode                         : Lossy
Delay relative to video                  : -434 ms
Stream size                              : 1.71 MiB (2%)
Language                                 : Bulgarian

Menu
ID                                       : 4134 (0x1026)
Menu ID                                  : 106 (0x6A)
Duration                                 : 1 min 14 s
List                                     : 4150 (0x1036) (AVC) / 4166 (0x1046) (MPEG Audio, Bulgarian) / 122 (0x7A) (MPEG Audio, English)
Language                                 :  / Bulgarian / English
Service name                             : Eurosport 1 HD Bulgaria
Service provider                         : Discovery Communications  EMEA
Service type                             : advanced codec HD digital television
Ooops! Did my sarcasm hurts your feelings?

За всяко явление може да се намери логично, просто и напълно погрешно обяснение...
Аватар
plameni
 
Мнения: 1197
Регистриран на: Вто Яну 27, 2009 11:04 pm

Re: Тема за проблеми и коментари

Мнениеот sparta » Нед Фев 16, 2020 11:51 pm

HD версията е отбелязана като HD на самото лого, така че да, това би трябвало да е SD. Виж на Евроспорт 2 логото, за да видиш разликата.
sparta
 
Мнения: 132
Регистриран на: Пон Дек 17, 2012 2:35 pm

Re: Тема за проблеми и коментари

Мнениеот plameni » Пон Фев 17, 2020 12:09 am

Сериозно ли не виждаш резолюцията, битрейта и техническата информация?
Код: Избери целия код
Service name                             : Eurosport 1 HD Bulgaria
Service provider                         : Discovery Communications  EMEA
Service type                             : advanced codec HD digital television


Това, че в някоя апаратна са сложили друго лого в стрийма, по никакъв начин не променя съдържанието.
Ooops! Did my sarcasm hurts your feelings?

За всяко явление може да се намери логично, просто и напълно погрешно обяснение...
Аватар
plameni
 
Мнения: 1197
Регистриран на: Вто Яну 27, 2009 11:04 pm

Re: Тема за проблеми и коментари

Мнениеот sparta » Пон Фев 17, 2020 12:23 am

Ако информацията, която показваш е вярна, тогава въпросът е какво аджаба са бърникали по канала, защото в интернет я има и версията с другото лого.
sparta
 
Мнения: 132
Регистриран на: Пон Дек 17, 2012 2:35 pm

Re: Тема за проблеми и коментари

Мнениеот plameni » Пон Фев 17, 2020 4:13 pm

Направих запис минута и нещо на флашка и прегледах файла на компютър.
Техническата информация е "извадена" с MediaInfo. Нямам основание да се съмнявам в нея, а и с просто око се вижда, че изображението е HD.

В конкретния случай, Cooolbox нямат каквото и да отношение за това разминаване. "Бърникането" става в апаратна на Eurosport.
Ooops! Did my sarcasm hurts your feelings?

За всяко явление може да се намери логично, просто и напълно погрешно обяснение...
Аватар
plameni
 
Мнения: 1197
Регистриран на: Вто Яну 27, 2009 11:04 pm

Re: Тема за проблеми и коментари

Мнениеот plameni » Пон Фев 17, 2020 9:25 pm

Аз бих предпочел да гледам Eurosport така:

Изображение

макар че все още повечето предавания вървят на ъпскейл. Да не забравяме обаче, че тази година има Олимпийски игри и се надявам, че японците ще изкарат максимално качество ;)
Ooops! Did my sarcasm hurts your feelings?

За всяко явление може да се намери логично, просто и напълно погрешно обяснение...
Аватар
plameni
 
Мнения: 1197
Регистриран на: Вто Яну 27, 2009 11:04 pm

Re: Тема за проблеми и коментари

Мнениеот sparta » Сря Фев 19, 2020 7:37 am

Те японците ще изкарат максимално качество, но то няма да достигне до България, както винаги :lol: Иначе да, това е бъдещето, но като знам колко забавено стават нещата в България, не мисля че това ще го бъде в това десетилетие. Говоря за България естествено. На запад е съвсем различно. ;)
sparta
 
Мнения: 132
Регистриран на: Пон Дек 17, 2012 2:35 pm

Предишна

Назад към Coool TV

Кой е на линия

Потребители разглеждащи този форум: 0 регистрирани и 5 госта

cron